<svg xmlns="http://www.w3.org/2000/svg" width="598.486" height="671.089"><font horiz-adv-x="1000"><font-face font-family="Gotham-Black" underline-position="-133" underline-thickness="20"/><glyph unicode="A" horiz-adv-x="795" d="M6 0h204l50 125h270L581 0h208L491 705H304m13-429l79 199 78-199z"/><glyph unicode="Æ" horiz-adv-x="1063" d="M-5 0h196l65 125h226V0h543v165H671v111h314v153H671v106h349v165H365m-31-424l136 265h12V276z"/><glyph unicode="Á" horiz-adv-x="795" d="M6 0h204l50 125h270L581 0h208L491 705H304m13-429l79 199 78-199M319 747h134l147 128-177 57z"/><glyph unicode="Â" horiz-adv-x="795" d="M6 0h204l50 125h270L581 0h208L491 705H304m13-429l79 199 78-199M193 747h120l84 61 84-61h122L475 912H321z"/><glyph unicode="Ä" horiz-adv-x="795" d="M6 0h204l50 125h270L581 0h208L491 705H304m13-429l79 199 78-199m-49 471h165v143H425M206 747h165v143H206z"/><glyph unicode="À" horiz-adv-x="795" d="M6 0h204l50 125h270L581 0h208L491 705H304m13-429l79 199 78-199M343 747h134L373 932l-177-57z"/><glyph unicode="Å" horiz-adv-x="795" d="M6 0h204l50 125h270L581 0h208L499 687c19 21 31 48 31 77v2c0 69-62 126-132 126-71 0-133-57-133-126v-2c0-29 12-56 31-77m102 11c-37 0-67 30-67 66v2c0 35 30 65 67 65 36 0 66-30 66-65v-2c0-36-30-66-66-66m-81-422l79 199 78-199z"/><glyph unicode="Ã" horiz-adv-x="795" d="M6 0h204l50 125h270L581 0h208L491 705H304m13-429l79 199 78-199M278 740c13 31 23 46 51 46 32 0 96-39 156-39 69 0 103 50 124 149l-91 25c-13-31-23-46-51-46-32 0-96 39-156 39-69 0-103-50-124-149z"/><glyph unicode="B" horiz-adv-x="715" d="M62 0h361c167 0 265 73 265 193v2c0 95-54 143-139 171 62 27 108 75 108 156v2c0 48-17 85-45 113-41 41-103 63-191 63H62m189-279v123h126c58 0 88-22 88-60v-2c0-41-33-61-92-61M251 156v129h148c65 0 95-25 95-63v-2c0-41-34-64-93-64z"/><glyph unicode="C" horiz-adv-x="730" d="M399-14c155 0 244 67 310 158L563 248c-42-51-85-85-158-85-98 0-167 82-167 187v2c0 102 69 185 167 185 67 0 113-32 153-82l146 113c-62 86-154 146-297 146-212 0-369-160-369-364v-2C38 139 199-14 399-14z"/><glyph unicode="Ç" horiz-adv-x="730" d="M381-173l56 161C569-1 649 61 709 144L563 248c-42-51-85-85-158-85-98 0-167 82-167 187v2c0 102 69 185 167 185 67 0 113-32 153-82l146 113c-62 86-154 146-297 146-212 0-369-160-369-364v-2C38 172 152 36 308-3l-78-106z"/><glyph unicode="D" horiz-adv-x="765" d="M62 0h266c252 0 399 150 399 352v2c0 202-145 346-395 346H62m194-528v356h79c116 0 193-65 193-177v-2c0-113-77-177-193-177z"/><glyph unicode="E" horiz-adv-x="667" d="M62 0h568v165H254v111h336v153H254v106h371v165H62z"/><glyph unicode="É" horiz-adv-x="667" d="M62 0h568v165H254v111h336v153H254v106h371v165H62m190 47h134l147 128-177 57z"/><glyph unicode="Ê" horiz-adv-x="667" d="M62 0h568v165H254v111h336v153H254v106h371v165H62m78 47h120l84 61 84-61h122L422 912H268z"/><glyph unicode="Ë" horiz-adv-x="667" d="M62 0h568v165H254v111h336v153H254v106h371v165H62m310 47h165v143H372M153 747h165v143H153z"/><glyph unicode="È" horiz-adv-x="667" d="M62 0h568v165H254v111h336v153H254v106h371v165H62m251 47h134L343 932l-177-57z"/><glyph unicode="Ð" horiz-adv-x="815" d="M111 0h266c252 0 399 150 399 352v2c0 202-145 346-395 346H111V429H31V276h80m188-109v109h119v153H299v104h85c119 0 193-68 193-182v-2c0-115-74-182-193-182z"/><glyph unicode="F" horiz-adv-x="648" d="M62 0h194v250h331v161H256v119h366v170H62z"/><glyph unicode="G" horiz-adv-x="769" d="M419-14c127 0 230 47 304 108v315H401V267h138v-85c-29-19-65-29-112-29-111 0-190 81-190 194v2c0 107 78 192 179 192 69 0 119-24 169-66l114 137c-74 64-161 102-284 102-217 0-377-160-377-364v-2C38 136 201-14 419-14z"/><glyph unicode="H" horiz-adv-x="761" d="M62 0h194v266h249V0h194v700H505V438H256v262H62z"/><glyph unicode="I" horiz-adv-x="327" d="M66 0h195v700H66z"/><glyph unicode="Í" horiz-adv-x="327" d="M66 0h195v700H66m21 47h134l147 128-177 57z"/><glyph unicode="Î" horiz-adv-x="327" d="M66 0h195v700H66m-108 47H79l84 61 84-61h122L241 912H87z"/><glyph unicode="Ï" horiz-adv-x="327" d="M66 0h195v700H66m125 47h165v143H191M-29 747h166v143H-29z"/><glyph unicode="Ì" horiz-adv-x="327" d="M66 0h195v700H66m40 47h134L136 932l-177-57z"/><glyph unicode="J" horiz-adv-x="564" d="M250-12c80 0 146 25 192 71 47 47 69 109 69 197v444H318V257c0-65-31-98-80-98-43 0-75 24-109 65L4 106C53 39 128-12 250-12z"/><glyph unicode="K" horiz-adv-x="730" d="M62 0h194v181l71 79L503 0h233L462 399l265 301H497L256 416v284H62z"/><glyph unicode="L" horiz-adv-x="616" d="M62 0h533v170H256v530H62z"/><glyph unicode="Ł" horiz-adv-x="659" d="M107 0h531v170H300v132l177 52v174l-177-52v224H107V418l-76-22V223l76 22z"/><glyph unicode="M" horiz-adv-x="868" d="M62 0h190v400l178-272h4l179 274V0h193v700H601L434 429 267 700H62z"/><glyph unicode="N" horiz-adv-x="785" d="M62 0h192v384L553 0h170v700H531V330L243 700H62z"/><glyph unicode="Ñ" horiz-adv-x="785" d="M62 0h192v384L553 0h170v700H531V330L243 700H62m211 40c13 31 23 46 51 46 32 0 96-39 156-39 69 0 103 50 124 149l-91 25c-13-31-23-46-51-46-32 0-96 39-156 39-69 0-103-50-124-149z"/><glyph unicode="O" horiz-adv-x="831" d="M414-14c216 0 378 163 378 364v2c0 201-160 362-376 362S38 551 38 350v-2C38 147 198-14 414-14m2 175c-106 0-179 88-179 189v2c0 101 71 187 177 187 107 0 180-88 180-189v-2c0-101-71-187-178-187z"/><glyph unicode="Œ" horiz-adv-x="1078" d="M433 0h607v165H686v111h314v153H686v106h349v165H437C185 700 38 551 38 348v-2C38 144 184 0 433 0m-5 169c-114 0-191 69-191 180v2c0 113 77 180 191 180h66V169z"/><glyph unicode="Ó" horiz-adv-x="831" d="M414-14c216 0 378 163 378 364v2c0 201-160 362-376 362S38 551 38 350v-2C38 147 198-14 414-14m2 175c-106 0-179 88-179 189v2c0 101 71 187 177 187 107 0 180-88 180-189v-2c0-101-71-187-178-187m-69 586h134l147 128-177 57z"/><glyph unicode="Ô" horiz-adv-x="831" d="M414-14c216 0 378 163 378 364v2c0 201-160 362-376 362S38 551 38 350v-2C38 147 198-14 414-14m2 175c-106 0-179 88-179 189v2c0 101 71 187 177 187 107 0 180-88 180-189v-2c0-101-71-187-178-187M211 745h120l84 61 84-61h122L493 910H339z"/><glyph unicode="Ö" horiz-adv-x="831" d="M414-14c216 0 378 163 378 364v2c0 201-160 362-376 362S38 551 38 350v-2C38 147 198-14 414-14m2 175c-106 0-179 88-179 189v2c0 101 71 187 177 187 107 0 180-88 180-189v-2c0-101-71-187-178-187m27 586h165v143H443M224 747h165v143H224z"/><glyph unicode="Ò" horiz-adv-x="831" d="M414-14c216 0 378 163 378 364v2c0 201-160 362-376 362S38 551 38 350v-2C38 147 198-14 414-14m2 175c-106 0-179 88-179 189v2c0 101 71 187 177 187 107 0 180-88 180-189v-2c0-101-71-187-178-187m-65 586h134L381 932l-177-57z"/><glyph unicode="Ω" horiz-adv-x="808" d="M489 0h189v389h121v146H675v13c0 35 19 51 54 51 27 0 49-4 71-11v134c-30 9-66 15-124 15-64 0-109-14-141-47-32-32-46-78-46-140v-15h-64V389h64M85 0h189v389h121v146H271v13c0 35 19 51 54 51 27 0 49-4 71-11v134c-30 9-66 15-124 15-64 0-108-14-141-47-32-32-46-78-46-140v-12H22V389h63z"/><glyph unicode="Ø" horiz-adv-x="831" d="M414-14c216 0 378 163 378 364v2c0 93-34 177-91 240l99 113H653l-39-44c-56 34-124 53-198 53-216 0-378-163-378-364v-2c0-93 34-177 92-241L30-5h147l39 44c57-34 125-53 198-53M258 253c-16 29-24 62-24 97v2c0 103 72 191 180 191 31 0 58-7 81-19m-79-367c-30 0-57 7-81 19l238 271c16-29 24-62 24-97v-2c0-103-72-191-181-191z"/><glyph unicode="Õ" horiz-adv-x="831" d="M414-14c216 0 378 163 378 364v2c0 201-160 362-376 362S38 551 38 350v-2C38 147 198-14 414-14m2 175c-106 0-179 88-179 189v2c0 101 71 187 177 187 107 0 180-88 180-189v-2c0-101-71-187-178-187M296 740c13 31 23 46 51 46 32 0 96-39 156-39 69 0 103 50 124 149l-91 25c-13-31-23-46-51-46-32 0-96 39-156 39-69 0-103-50-124-149z"/><glyph unicode="P" horiz-adv-x="673" d="M62 0h194v200h96c174 0 301 87 301 252v2c0 155-114 246-291 246H62m194-348v185h91c70 0 112-32 112-92v-2c0-55-42-91-111-91z"/><glyph unicode="Q" horiz-adv-x="831" d="M704-21l98 109-72 61c40 57 62 127 62 201v2c0 201-160 362-376 362S38 551 38 350v-2C38 147 198-14 414-14c80 0 153 23 213 62M416 158c-107 0-179 89-179 190v2c0 101 71 189 177 189 108 0 181-89 181-191v-2c0-24-4-47-12-68l-95 86-98-110 97-83c-21-8-45-13-71-13z"/><glyph unicode="R" horiz-adv-x="719" d="M62 0h194v212h85L482 0h224L539 244c87 37 144 108 144 215v2c0 69-21 123-62 163-47 48-121 76-228 76H62m194-336v168h127c65 0 105-28 105-83v-2c0-51-38-83-104-83z"/><glyph unicode="S" horiz-adv-x="652" d="M337-12c170 0 283 85 283 228v2c0 131-100 183-261 218-97 22-121 36-121 68v2c0 25 23 45 70 45 62 0 132-24 196-69l97 137c-76 61-169 93-288 93-168 0-271-94-271-224v-2c0-144 115-186 264-220 95-22 118-38 118-67v-2c0-30-28-48-80-48-81 0-158 29-227 84L9 104C95 27 213-12 337-12z"/><glyph unicode="Š" horiz-adv-x="652" d="M337-12c170 0 283 85 283 228v2c0 131-100 183-261 218-97 22-121 36-121 68v2c0 25 23 45 70 45 62 0 132-24 196-69l97 137c-76 61-169 93-288 93-168 0-271-94-271-224v-2c0-144 115-186 264-220 95-22 118-38 118-67v-2c0-30-28-48-80-48-81 0-158 29-227 84L9 104C95 27 213-12 337-12m-94 759h154l128 165H405l-84-61-84 61H115z"/><glyph unicode="T" horiz-adv-x="660" d="M233 0h194v530h210v170H23V530h210z"/><glyph unicode="Þ" horiz-adv-x="682" d="M62 0h194v105h96c174 0 301 84 301 250v2c0 155-114 243-291 243H256v100H62m194-440v184h91c70 0 112-31 112-91v-2c0-55-42-91-111-91z"/><glyph unicode="U" horiz-adv-x="758" d="M377-13c199 0 328 99 328 325v388H508V306c0-98-51-144-129-144s-129 48-129 149v389H53V307C53 88 178-13 377-13z"/><glyph unicode="Ú" horiz-adv-x="758" d="M377-13c199 0 328 99 328 325v388H508V306c0-98-51-144-129-144s-129 48-129 149v389H53V307C53 88 178-13 377-13m-76 755h134l147 128-177 57z"/><glyph unicode="Û" horiz-adv-x="758" d="M377-13c199 0 328 99 328 325v388H508V306c0-98-51-144-129-144s-129 48-129 149v389H53V307C53 88 178-13 377-13M174 747h120l84 61 84-61h122L456 912H302z"/><glyph unicode="Ü" horiz-adv-x="758" d="M377-13c199 0 328 99 328 325v388H508V306c0-98-51-144-129-144s-129 48-129 149v389H53V307C53 88 178-13 377-13m29 760h165v143H406M187 747h165v143H187z"/><glyph unicode="Ù" horiz-adv-x="758" d="M377-13c199 0 328 99 328 325v388H508V306c0-98-51-144-129-144s-129 48-129 149v389H53V307C53 88 178-13 377-13m-54 755h134L353 927l-177-57z"/><glyph unicode="V" horiz-adv-x="760" d="M290-5h180l284 705H541L382 257 223 700H6z"/><glyph unicode="W" horiz-adv-x="1117" d="M249-5h169l140 403L699-5h169l234 705H901L779 295 644 702H477L342 295 220 700H15z"/><glyph unicode="X" horiz-adv-x="732" d="M11 0h218l135 211L498 0h223L481 358l230 342H493L368 503 244 700H21l230-344z"/><glyph unicode="Y" horiz-adv-x="723" d="M264 0h195v265l266 435H508L363 445 219 700H-2l266-438z"/><glyph unicode="Ý" horiz-adv-x="723" d="M264 0h195v265l266 435H508L363 445 219 700H-2l266-438m17 483h134l147 128-177 57z"/><glyph unicode="Ÿ" horiz-adv-x="723" d="M264 0h195v265l266 435H508L363 445 219 700H-2l266-438m125 485h165v143H389M170 747h165v143H170z"/><glyph unicode="Z" horiz-adv-x="698" d="M40 0h619v164H308l351 395v141H52V536h339L40 141z"/><glyph unicode="Ž" horiz-adv-x="698" d="M40 0h619v164H308l351 395v141H52V536h339L40 141m237 606h154l128 165H439l-84-61-84 61H149z"/><glyph unicode="a" horiz-adv-x="599" d="M206-12c71 0 122 27 159 68V0h188v311c0 76-17 132-58 172-43 43-109 66-206 66-93 0-158-17-219-42l39-134c48 19 92 30 149 30 73 0 108-32 108-88v-9c-31 11-80 21-130 21-127 0-212-58-212-170v-2C24 47 103-12 206-12m68 119c-39 0-67 22-67 59v2c0 40 32 67 87 67 28 0 55-6 74-14v-25c0-54-39-89-94-89z"/><glyph unicode="á" horiz-adv-x="599" d="M206-12c71 0 122 27 159 68V0h188v311c0 76-17 132-58 172-43 43-109 66-206 66-93 0-158-17-219-42l39-134c48 19 92 30 149 30 73 0 108-32 108-88v-9c-31 11-80 21-130 21-127 0-212-58-212-170v-2C24 47 103-12 206-12m68 119c-39 0-67 22-67 59v2c0 40 32 67 87 67 28 0 55-6 74-14v-25c0-54-39-89-94-89m-58 482h134l147 128-177 57z"/><glyph unicode="â" horiz-adv-x="599" d="M206-12c71 0 122 27 159 68V0h188v311c0 76-17 132-58 172-43 43-109 66-206 66-93 0-158-17-219-42l39-134c48 19 92 30 149 30 73 0 108-32 108-88v-9c-31 11-80 21-130 21-127 0-212-58-212-170v-2C24 47 103-12 206-12m68 119c-39 0-67 22-67 59v2c0 40 32 67 87 67 28 0 55-6 74-14v-25c0-54-39-89-94-89M92 587h120l84 61 84-61h122L374 752H220z"/><glyph unicode="´" horiz-adv-x="500" d="M131 587h134l147 128-177 57z"/><glyph unicode="ä" horiz-adv-x="599" d="M206-12c71 0 122 27 159 68V0h188v311c0 76-17 132-58 172-43 43-109 66-206 66-93 0-158-17-219-42l39-134c48 19 92 30 149 30 73 0 108-32 108-88v-9c-31 11-80 21-130 21-127 0-212-58-212-170v-2C24 47 103-12 206-12m68 119c-39 0-67 22-67 59v2c0 40 32 67 87 67 28 0 55-6 74-14v-25c0-54-39-89-94-89m50 482h165v143H324M105 589h165v143H105z"/><glyph unicode="æ" horiz-adv-x="940" d="M225-12c80 0 154 32 217 80 51-51 125-81 212-81 108 0 182 44 234 110l-105 87c-39-38-74-55-120-55-58 0-101 30-117 89h362c1 13 2 27 2 39 0 159-88 296-269 296-69 0-126-24-169-65-39 39-95 61-183 61-93 0-158-17-219-42l39-134c48 19 92 30 149 30 73 0 108-32 108-88v-9c-31 11-80 21-130 21-127 0-212-58-212-170v-2C24 44 114-12 225-12m319 327c9 59 43 98 93 98 52 0 88-38 95-98M277 109c-40 0-70 21-70 57v2c0 40 32 67 87 67 27 0 54-6 73-14 3-24 10-47 19-68-36-29-73-44-109-44z"/><glyph unicode="à" horiz-adv-x="599" d="M206-12c71 0 122 27 159 68V0h188v311c0 76-17 132-58 172-43 43-109 66-206 66-93 0-158-17-219-42l39-134c48 19 92 30 149 30 73 0 108-32 108-88v-9c-31 11-80 21-130 21-127 0-212-58-212-170v-2C24 47 103-12 206-12m68 119c-39 0-67 22-67 59v2c0 40 32 67 87 67 28 0 55-6 74-14v-25c0-54-39-89-94-89m-22 482h134L282 774l-177-57z"/><glyph unicode="&amp;" horiz-adv-x="698" d="M551-14l131 94-94 93c33 45 63 95 92 148l-128 64c-21-40-43-78-66-111l-78 76c82 38 137 96 137 182v2c0 102-81 180-208 180-137 0-220-88-220-190v-2c0-45 14-88 46-134C68 345 21 279 21 192v-2C21 63 128-12 271-12c81 0 149 26 208 71M317 437c-24 30-36 53-36 80v2c0 37 23 62 56 62 32 0 54-22 54-56v-2c0-37-24-64-74-86m-20-306c-48 0-82 28-82 69v2c0 28 15 55 50 76l115-117c-27-18-55-30-83-30z"/><glyph unicode="" horiz-adv-x="967" d="M868 0v750H101V0m758-104l-6 34h-1l-13-26-13 26h-1l-6-34h6l3 20 10-21h2l10 21 3-20m-47 17c0 9-7 17-16 17-11 0-18-8-18-18 0-9 7-17 17-17s17 8 17 18m-48-9c-3-2-7-4-10-4-7 0-13 4-13 13 0 7 6 12 12 12 3 0 7-1 9-3l2 5c-3 2-7 3-11 3-10 0-18-8-18-18s7-17 18-17c4 0 8 1 10 3m-55 31h-7l-9-14-11 15-6-1 14-19v-14h6v14m-33-14v33h-6v-13h-16v13h-6v-33h6v15h16v-15m-38 22c0 7-5 13-23 11v-33h6v10c10 0 17 4 17 12m-36-22l-16 34h-2l-15-34h6l3 8h14l4-8m-36 0l-10 13c4 2 7 5 7 10 0 6-5 12-23 10v-33h6v11h5l8-11m-36 3v15h-15v-5h9v-7c-2-1-4-2-6-2-7 0-13 5-13 12 0 8 5 13 12 13 4 0 9-2 11-4l2 5c-3 2-8 4-12 4-11 0-19-8-19-18s8-17 18-17c5 0 10 2 13 4m-44 14c0 9-7 17-16 17-11 0-18-8-18-18 0-9 7-17 17-17s17 8 17 18m-47 5c0 7-5 13-23 11v-33h6v10c10 0 17 4 17 12m-36 11h-7l-9-14-11 15-6-1 14-19v-14h6v14m-28 19h-30v-5h12v-28h6v28h12m-56 5h-6l-7-22-10 23h-1l-10-23-7 23-6-1 12-34h1l10 23 11-23h1m-44 34h-6l-7-22-10 23h-1l-10-23-7 23-6-1 12-34h1l10 23 11-23h1m-44 34h-6l-7-22-10 23h-1l-10-23-7 23-6-1 12-34h1l10 23 11-23h1m573 4c0 2-2 4-4 4-3 0-4-2-4-4s2-4 4-4c3 0 4 2 4 4m-432 0c0 2-2 4-4 4-3 0-4-2-4-4s2-4 4-4c3 0 4 2 4 4m275 787h-2s-3 9-10 9c-2 0-3-1-3-3v-23c0-6 5-5 5-5v-2h-17v2s5-1 5 5v23c0 2 0 3-3 3-6 0-10-9-10-9h-2s1 8 1 12c3-1 8-1 18-1 9 0 15 0 17 1 1-4 1-12 1-12m-55-24h-18v2s5-1 5 5v10h-17v-10c0-5 5-5 5-5v-2h-17v2s5 0 5 5v21c0 6-5 5-5 5v2h17v-2s-5 1-5-5v-9h17v9c0 6-5 5-5 5v2h18v-2s-6 1-6-5v-21c0-6 6-5 6-5m-65 0v-2h-30l-2 11 2 1s3-9 10-9h4c2 0 4 0 4 3v11h-4c-6 0-6-6-6-6h-2v13h2s0-5 6-5h4v10c0 3-2 3-4 3h-4c-6 0-9-8-9-8l-2 1 2 10h29v-2s-5 1-5-5v-21c0-6 5-5 5-5m388-46H142v6h685m-131-84c0-16-14-22-23-22-19 0-37 17-37 38 0 16 14 22 23 22 19 0 37-18 37-38m-107-3c0-10-8-19-25-19-9 0-16 6-16 13 0 5 4 10 9 10 4 0 7-2 7-5s-2-5-4-5c-3 0-4 2-5 2-2 0-3-1-3-3 0-5 5-9 12-9s12 5 12 14c0 7-2 12-6 15-3-3-6-5-11-5-4 0-8 3-8 6 0 6 7 7 16 6 1 1 2 2 2 6 0 7-3 12-10 12-4 0-7-2-7-5s3-2 3-6c0-1-1-3-4-3s-5 3-5 6c0 6 5 11 13 11 15 0 21-9 21-15 0-4-2-7-5-9 9-3 14-10 14-17m-294 0c0-10-8-19-25-19-9 0-16 6-16 13 0 5 4 10 9 10 4 0 7-2 7-5s-2-5-4-5c-3 0-4 2-5 2-2 0-3-1-3-3 0-5 5-9 12-9s12 5 12 14c0 7-2 12-6 15-3-3-6-5-11-5-4 0-8 3-8 6 0 6 7 7 16 6 1 1 2 2 2 6 0 7-3 12-10 12-4 0-7-2-7-5s3-2 3-6c0-1-1-3-4-3s-5 3-5 6c0 6 5 11 13 11 15 0 21-9 21-15 0-4-2-7-5-9 9-3 14-10 14-17m525-15l1-3h-29l-1 3s9-1 7 8l-3 16h-24l3-16c2-9 10-8 10-8l1-3h-29l-1 3s9-1 7 8l-7 35c-2 9-10 8-10 8l-1 3h29l1-3s-9 1-7-8l3-15h24l-3 15c-2 9-9 8-9 8l-1 3h28l1-3s-9 1-7-8l7-35c2-9 10-8 10-8m-322-3h-29l-1 3s9-1 7 8l-3 17h-4c-9 0-8-11-8-11h-3l-5 23h3s3-9 12-9h4l-3 16c-1 5-3 6-6 6h-4c-14 0-13-13-13-13h-4s1 13 0 17h45l1-3s-9 1-7-8l7-35c2-9 10-8 10-8m-295 0l1-3h-29l-1 3s9-1 7 8l-3 15c-2 0-4-1-5-3l-12-23h-19l-1 3s9-1 14 8l9 16c-10 1-19 7-19 15 0 10 8 15 20 15h27l1-3s-9 1-7-8l7-35c2-9 10-8 10-8m198-1c0-2-2-3-4-3-5 0-10 3-12 7-11 0-7-13-25-13-7 0-15 6-15 12 0 3 1 7 5 7 3 0 5-2 5-5 0-2-2-2-2-5 0-2 2-4 5-4 7 0 9 13 23 13-17 15-8 45-21 45-4 0-5-3-5-6 0-4 0-6-4-6-3 0-5 2-5 5 0 4 6 10 13 10 31 0 19-41 29-48 9-1 13-6 13-9m427-46H142v6h685m0-103h-36v28h-11v-65h14v-33h-81v33h14v65h-11v-28h-36v62h147m-179-34h-14l-37-45v-20h15v-33h-81v33h14v19l-37 46h-12v34h62v-34h-10l15-23 15 23h-11v34h81M458 308h-81v33h15v19h-30c-29 0-47 17-47 40 0 22 18 40 47 40h96v-34h-14v-65h14m-175-33H142v61h41v-28h33v21h-24v24h24v20h-33v-28h-41v62h141v-34h-14v-65h14m544-70H142v6h685m-99-85c0-16-14-22-23-22-19 0-37 17-37 38 0 16 14 22 23 22 19 0 37-18 37-38m-525 25l-2-2c-3 3-6 7-12 7s-9-5-9-13c0-5 2-15 5-25 3-11 10-9 10-9l1-4h-28l-1 4s10-2 6 15c-4 16-11 33-24 33-5 0-8-2-8-6l-3 1c0 8 6 12 12 12 11 0 17-10 21-23-1 16 5 23 14 23 10 0 14-6 18-13m620-46h-29l-1 3s9-1 7 8l-3 17h-4c-9 0-8-11-8-11h-3l-5 23h3s3-9 12-9h4l-3 16c-1 5-3 6-6 6h-4c-14 0-13-13-13-13h-4s1 13 0 17h45l1-3s-9 1-7-8l7-35c2-9 10-8 10-8m-201 51s-11 2-8-9l5-22c2-10 4-24-19-24-18 0-26 16-28 27l-4 19c-2 10-11 9-11 9l-1 3h24v-3s-9 2-7-9l4-19c3-12 9-22 20-22 14 0 14 7 11 20l-5 21c-2 10-10 9-10 9l-1 3h29m-98-54l1-3h-21l-1 3s8-1 6 10l-6 30-30-44-3 1-8 45c-2 9-9 9-9 9l-1 3h21l1-3s-9 0-7-9l5-30 29 42h14l1-3s-10 1-8-9l7-32c3-10 9-10 9-10m-108-3h-32c-17 0-35 14-35 35 0 15 13 22 25 22h30l1-3c-8-1-10-4-8-10l8-31c3-11 10-9 10-9m-107-1l1-3h-29l-1 3s9-1 7 8l-3 15c-2 0-4-1-5-3l-12-23h-19l-1 3s9-1 14 8l9 16c-10 1-19 7-19 15 0 10 8 15 20 15h27l1-3s-9 1-7-8l7-35c2-9 10-8 10-8m521-47H142v6h685M694 46h-14v2s5 1 5 5v20l-25-28h-3v28c0 5-6 6-6 6v2h15v-2s-6-1-6-6V55l24 26h10v-2s-6-3-6-6V53c0-4 6-5 6-5m-61 0v-2h-30l-2 11 2 1s3-9 10-9h4c2 0 4 0 4 3v11h-4c-6 0-6-6-6-6h-2v13h2s0-5 6-5h4v10c0 3-2 3-4 3h-4c-6 0-9-8-9-8l-2 1 2 10h29v-2s-5 1-5-5V53c0-6 5-5 5-5m-50 33v-2s-4 0-7-6l-12-27h-1l-9 16-8-16c0-1-1 0-1 0h-1l-13 27c-2 5-6 6-6 6v2h13v-2s-4-1-2-6l8-18 7 13-3 5c-4 6-7 6-7 6l-1 2h26v-2s-4-2-6-6l-4-8 5-10 9 19c2 4-2 5-2 5v2m-88-2s-4 0-7-5l-8-12v-8c0-6 5-6 5-6v-2h-17v2s5 0 5 6v8l-8 12c-3 5-8 5-8 5v2h15v-2s-6 0-3-5l6-9 6 9c3 5-1 5-1 5v2h15m-55-17c0-10-7-19-20-19s-20 9-20 19 7 18 20 18 20-8 20-18m-61-18h-17v2s5 0 5 5v9c-4 0-4 0-7-4l-7-12h-11v2s4 0 8 5l7 10c-5 2-9 5-9 9 0 5 5 9 13 9h18v-2s-5 0-5-6V53c0-5 5-5 5-5m-55-2h-18v2s6 0 6 6v9c-2 0-3-1-4-2l-8-8c-4-5 2-5 2-5v-2h-17v2s5 3 7 5l13 13-10 9c-3 3-8 4-8 4v2h14v-2s-4-1-1-4l8-8c1-1 2-2 4-2v9c0 5-6 5-6 5v2h18v-2s-6 0-6-5V54c0-5 6-6 6-6M606-83c0-5-5-6-11-6v13c8 1 11-2 11-7m-81 1c0-3-2-7-11-6v12c6 1 11-1 11-6m-131-1c0-4-5-6-11-6v13c8 1 11-2 11-7m170-9h-10l5 12m241-8c0-7-5-12-11-12s-11 5-11 13c0 7 5 12 11 12s11-4 11-13m-359 0c0-7-5-12-11-12s-11 5-11 13c0 7 5 12 11 12s11-4 11-13M176 548l-3 19c-1 4-3 5-9 5s-8-3-8-9 4-15 15-15m395 5c-2 1-5 1-7 1-3 0-4-1-4-3 0-1 1-2 4-2 2 0 5 1 7 4m-294 0c-2 1-5 1-7 1-3 0-4-1-4-3 0-1 1-2 4-2 2 0 5 1 7 4m412-18c0 21-13 39-25 39-7 0-11-5-11-14 0-20 13-38 25-38 8 0 11 4 11 13M392 384v22h-11c-9 0-13-5-13-11s4-11 13-11M280 200l-3 19c-1 4-3 5-9 5s-8-3-8-9 4-15 15-15m441-13c0 21-13 39-25 39-7 0-11-5-11-14 0-20 13-38 25-38 8 0 11 4 11 13m-323-5l-9 35c-2 6-2 6-6 7h-6c-9 0-14-6-14-17 0-16 11-32 26-32h5c3 0 4 1 4 7M553 79c-2 0-4-2 0-9 3 6 4 9 0 9M352 64v10c0 3-1 4-4 4-5 0-7-3-7-6 0-6 4-8 8-8h3m65 0c0 9-3 16-12 16-8 0-12-7-12-16s4-17 12-17c9 0 12 8 12 17z"/><glyph unicode="≈" horiz-adv-x="1108" d="M859 590h198v140H859M489 0h189v389h121v146H675v13c0 35 19 51 54 51 27 0 49-4 71-11v134c-30 9-66 15-124 15-64 0-109-14-141-47-32-32-46-78-46-140v-15h-64V389h64M85 0h189v389h121v146H271v13c0 35 19 51 54 51 27 0 49-4 71-11v134c-30 9-66 15-124 15-64 0-108-14-141-47-32-32-46-78-46-140v-12H22V389h63M863 0h190v541H863z"/><glyph unicode="å" horiz-adv-x="599" d="M206-12c71 0 122 27 159 68V0h188v311c0 76-17 132-58 172-43 43-109 66-206 66-93 0-158-17-219-42l39-134c48 19 92 30 149 30 73 0 108-32 108-88v-9c-31 11-80 21-130 21-127 0-212-58-212-170v-2C24 47 103-12 206-12m68 119c-39 0-67 22-67 59v2c0 40 32 67 87 67 28 0 55-6 74-14v-25c0-54-39-89-94-89m23 484c70 0 133 59 133 127v2c0 69-63 126-133 126s-133-57-133-126v-2c0-68 63-127 133-127m0 61c-37 0-67 30-67 66v2c0 35 30 65 67 65s67-30 67-65v-2c0-36-30-66-67-66z"/><glyph unicode="^" horiz-adv-x="500" d="M42 493h131l76 97 76-97h133L314 699H186z"/><glyph unicode="~" horiz-adv-x="505" d="M133 220c13 31 22 46 50 46 33 0 97-39 157-39 68 0 102 50 124 149l-92 25c-13-31-23-46-51-46-32 0-96 39-156 39-68 0-102-50-124-149z"/><glyph unicode="*" horiz-adv-x="425" d="M160 339h105l-25 132 103-88 54 92-127 45 127 45-54 93-103-88 25 132H160l25-132-103 88-54-93 127-45-127-45 54-92 103 88z"/><glyph unicode="@" horiz-adv-x="965" d="M491-162c104 0 188 28 265 75l-20 32c-75-44-146-67-245-67C253-122 87 52 87 275c0 221 168 399 401 399 228 0 389-164 389-349 0-133-53-203-118-203-41 0-65 26-65 59 0 15 2 29 4 44l46 258-155 24-12-61c-26 41-69 74-134 74-119 0-221-117-221-260 0-122 79-201 183-201 62 0 109 30 147 74 24-41 70-76 154-76 109 0 213 87 213 268 0 205-183 389-431 389-252 0-443-198-443-439 0-242 188-437 446-437m-36 356c-42 0-73 28-73 78 0 63 42 113 96 113 42 0 73-29 73-76 0-64-43-115-96-115z"/><glyph unicode="ã" horiz-adv-x="599" d="M206-12c71 0 122 27 159 68V0h188v311c0 76-17 132-58 172-43 43-109 66-206 66-93 0-158-17-219-42l39-134c48 19 92 30 149 30 73 0 108-32 108-88v-9c-31 11-80 21-130 21-127 0-212-58-212-170v-2C24 47 103-12 206-12m68 119c-39 0-67 22-67 59v2c0 40 32 67 87 67 28 0 55-6 74-14v-25c0-54-39-89-94-89m-95 473c13 31 23 46 51 46 32 0 96-39 156-39 69 0 103 50 124 149l-91 25c-13-31-23-46-51-46-32 0-96 39-156 39-69 0-103-50-124-149z"/><glyph unicode="b" horiz-adv-x="676" d="M406-12c128 0 239 107 239 283v2c0 173-111 280-240 280-81 0-127-39-164-84v261H51V0h190v66c35-41 83-78 165-78m-59 159c-61 0-110 51-110 123v2c0 71 49 122 110 122 62 0 111-51 111-122v-2c0-73-49-123-111-123z"/><glyph unicode="\" horiz-adv-x="535" d="M419-128h154L130 798H-24z"/><glyph unicode="|" horiz-adv-x="355" d="M105-128h145v926H105z"/><glyph unicode="{" horiz-adv-x="490" d="M429-141l29 111C351-6 334 21 334 83c0 17 3 49 3 70 0 73-39 114-112 134 73 20 112 61 112 134 0 21-3 53-3 70 0 62 17 89 124 113l-29 111c-200-24-264-83-264-193 0-15 3-57 3-74 0-76-40-98-118-98H34V224h16c78 0 118-22 118-98 0-17-3-59-3-74 0-110 64-169 264-193z"/><glyph unicode="}" horiz-adv-x="490" d="M61-141c200 24 264 83 264 193 0 15-3 57-3 74 0 76 40 98 118 98h16v126h-16c-78 0-118 22-118 98 0 17 3 59 3 74 0 110-64 169-264 193L32 604c107-24 124-51 124-113 0-17-3-49-3-70 0-73 39-114 112-134-73-20-112-61-112-134 0-21 3-53 3-70 0-62-17-89-124-113z"/><glyph unicode="[" horiz-adv-x="457" d="M66-130h346V-1H236v572h176v129H66z"/><glyph unicode="]" horiz-adv-x="457" d="M45-130h346v830H45V571h176V-1H45z"/><glyph unicode="˘" horiz-adv-x="500" d="M250 585c111 0 188 61 197 167H336c-12-35-36-58-86-58s-74 23-86 58H53c9-106 86-167 197-167z"/><glyph unicode="•" horiz-adv-x="500" d="M250 183c93 0 169 75 169 168v2c0 93-76 168-169 168S81 446 81 353v-2c0-93 76-168 169-168z"/><glyph unicode="c" horiz-adv-x="569" d="M312-13c119 0 191 50 241 124l-127 92c-30-35-59-56-104-56-64 0-108 53-108 123v2c0 66 45 120 106 120 46 0 75-21 101-57l129 96c-46 73-120 121-231 121-171 0-290-129-290-282v-2C29 115 149-13 312-13z"/><glyph unicode="ˇ" horiz-adv-x="500" d="M173 587h154l128 165H335l-84-61-84 61H45z"/><glyph unicode="ç" horiz-adv-x="569" d="M292-173l57 162c98 9 159 56 204 122l-127 92c-30-35-59-56-104-56-64 0-108 53-108 123v2c0 66 45 120 106 120 46 0 75-21 101-57l129 96c-46 73-120 121-231 121-171 0-290-129-290-282v-2C29 144 107 38 222 1l-81-110z"/><glyph unicode="¸" horiz-adv-x="500" d="M260-173l66 188H201l-92-124z"/><glyph unicode="¢" horiz-adv-x="575" d="M219 92L202-6h115l14 81c103 3 176 49 224 119l-115 84c-26-31-58-52-95-57l46 252c19-10 34-24 47-40l116 89c-27 40-69 76-126 97l15 87H328l-12-70C146 632 32 511 32 355v-2c0-121 76-223 187-261m79 399l-45-253c-36 22-56 64-56 117v2c0 66 40 125 101 134z"/><glyph unicode="ˆ" horiz-adv-x="500" d="M45 587h120l84 61 84-61h122L327 752H173z"/><glyph unicode=":" horiz-adv-x="294" d="M48 346h198v195H48M48 0h198v195H48z"/><glyph unicode="," horiz-adv-x="284" d="M35-165c125 4 206 55 206 203v159H43V2h77c2-54-33-86-100-94z"/><glyph unicode="©" horiz-adv-x="830" d="M414-14c203 0 363 167 363 364v2c0 197-158 362-361 362S53 547 53 350v-2C53 151 211-14 414-14m0 40C232 26 95 171 95 348v2c0 177 138 324 321 324 182 0 319-145 319-322v-2c0-177-138-324-321-324m6 130c83 0 131 36 168 86l-82 58c-23-27-46-46-86-46-53 0-90 44-90 100v2c0 55 37 100 90 100 37 0 62-18 84-45l81 64c-35 47-83 79-162 79-121 0-204-90-204-199v-2c0-111 84-197 201-197z"/><glyph unicode="¤" horiz-adv-x="682" d="M421-14c110 0 187 45 244 119L545 218c-33-40-67-66-118-66-55 0-93 28-115 74h158v101H292c-1 8-1 15-1 23v2c0 8 0 17 1 25h178v101H314c21 44 59 70 109 70 52 0 87-25 116-62l123 115c-53 68-131 113-240 113-160 0-266-102-301-233H37V377h68c-1-9-1-18-1-27v-2c0-7 0-14 1-21H37V223h81C152 83 259-14 421-14z"/><glyph unicode="d" horiz-adv-x="676" d="M270-12c81 0 128 39 165 84V0h190v730H435V475c-36 41-84 78-166 78-128 0-238-107-238-283v-2C31 95 142-12 270-12m58 159c-61 0-111 51-111 123v2c0 72 50 122 111 122s110-51 110-122v-2c0-72-49-123-110-123z"/><glyph unicode="†" horiz-adv-x="410" d="M155 223h100l-10 270 125-13v104l-124-13 15 129H149l15-129-124 13V480l125 13z"/><glyph unicode="‡" horiz-adv-x="430" d="M159 0h112l-15 129 124-13v104l-126-13 13 143-13 143 126-13v104l-124-13 15 129H159l15-129-124 13V480l126 13-13-143 13-143-126 13V116l124 13z"/><glyph unicode="°" horiz-adv-x="472" d="M236 352c98 0 182 79 182 176v2c0 97-86 178-182 178-97 0-182-81-182-178v-2c0-97 84-176 182-176m0 92c-48 0-84 38-84 84v2c0 47 37 85 84 85 46 0 84-38 84-85v-2c0-46-36-84-84-84z"/><glyph unicode="¨" horiz-adv-x="500" d="M277 587h165v143H277M58 587h165v143H58z"/><glyph unicode="$" horiz-adv-x="666" d="M295-98h104V0c142 13 236 88 236 210v2c0 124-80 181-239 218v116c45-11 93-31 134-60l82 134c-60 41-129 69-211 78v60H297v-57C144 690 58 608 58 490v-2c0-124 82-179 243-216V152c-62 10-122 37-186 82L25 101c75-54 172-89 270-99m7 445c-54 15-68 30-68 56v2c0 26 19 46 68 50m93-409v110c52-15 67-30 67-57v-2c0-29-21-46-67-51z"/><glyph unicode="˙" horiz-adv-x="500" d="M165 587h170v143H165z"/><glyph unicode="ı" horiz-adv-x="300" d="M55 0h190v541H55z"/><glyph unicode="e" horiz-adv-x="605" d="M319-13c108 0 183 44 235 110l-105 87c-39-38-75-55-120-55-59 0-102 30-117 89h362c1 13 1 27 1 39 0 159-86 296-273 296-160 0-273-125-273-283v-2C29 100 149-13 319-13M209 315c10 59 44 98 94 98 52 0 87-38 94-98z"/><glyph unicode="é" horiz-adv-x="605" d="M319-13c108 0 183 44 235 110l-105 87c-39-38-75-55-120-55-59 0-102 30-117 89h362c1 13 1 27 1 39 0 159-86 296-273 296-160 0-273-125-273-283v-2C29 100 149-13 319-13M209 315c10 59 44 98 94 98 52 0 87-38 94-98M228 589h134l147 128-177 57z"/><glyph unicode="ê" horiz-adv-x="605" d="M319-13c108 0 183 44 235 110l-105 87c-39-38-75-55-120-55-59 0-102 30-117 89h362c1 13 1 27 1 39 0 159-86 296-273 296-160 0-273-125-273-283v-2C29 100 149-13 319-13M209 315c10 59 44 98 94 98 52 0 87-38 94-98M98 585h120l84 61 84-61h122L380 750H226z"/><glyph unicode="ë" horiz-adv-x="605" d="M319-13c108 0 183 44 235 110l-105 87c-39-38-75-55-120-55-59 0-102 30-117 89h362c1 13 1 27 1 39 0 159-86 296-273 296-160 0-273-125-273-283v-2C29 100 149-13 319-13M209 315c10 59 44 98 94 98 52 0 87-38 94-98m-67 272h165v143H330M111 587h165v143H111z"/><glyph unicode="è" horiz-adv-x="605" d="M319-13c108 0 183 44 235 110l-105 87c-39-38-75-55-120-55-59 0-102 30-117 89h362c1 13 1 27 1 39 0 159-86 296-273 296-160 0-273-125-273-283v-2C29 100 149-13 319-13M209 315c10 59 44 98 94 98 52 0 87-38 94-98M244 589h134L274 774 97 717z"/><glyph unicode="8" horiz-adv-x="630" d="M315-12c168 0 288 81 288 206v2c0 87-49 134-120 167 54 30 96 76 96 152v2c0 112-107 195-264 195S51 629 51 517v-2c0-76 42-122 96-152-75-32-120-83-120-168v-2C27 71 147-12 315-12m0 428c-52 0-86 33-86 77v2c0 39 33 73 86 73s86-35 86-74v-2c0-44-34-76-86-76m0-283c-65 0-101 37-101 79v2c0 45 42 76 101 76s101-31 101-76v-2c0-42-36-79-101-79z"/><glyph unicode="…" horiz-adv-x="840" d="M603 0h194v192H603M323 0h194v192H323M43 0h194v192H43z"/><glyph unicode="—" horiz-adv-x="898" d="M40 231h818v163H40z"/><glyph unicode="–" horiz-adv-x="528" d="M40 231h448v163H40z"/><glyph unicode="=" horiz-adv-x="639" d="M74 403h491v167H74m0-436h491v167H74z"/><glyph unicode="ð" horiz-adv-x="656" d="M321-13c180 0 294 121 294 272v2c0 96-27 161-97 262l-64 90 103 35-64 89-99-37-21 30H171l64-88-117-40 65-89 115 44 80-107c-28 17-65 27-108 27-145 0-238-100-238-226v-2C32 102 151-13 321-13m4 159c-65 0-110 47-110 103v2c0 56 41 101 108 101 65 0 109-47 109-102v-2c0-56-40-102-107-102z"/><glyph unicode="!" horiz-adv-x="324" d="M112 228h100l58 387v85H54v-85M63 0h198v170H63z"/><glyph unicode="¡" horiz-adv-x="324" d="M63 530h198v170H63M54 0h216v85l-58 387H112L54 85z"/><glyph unicode="f" horiz-adv-x="404" d="M85 0h189v389h121v146H271v13c0 35 19 51 54 51 27 0 49-4 71-11v134c-30 9-66 15-124 15-64 0-108-14-141-47-32-32-46-78-46-140v-12H22V389h63z"/><glyph unicode="ﬁ" horiz-adv-x="704" d="M455 590h198v140H455M85 538H22V389h63V0h189v389h121v146H271v13c0 35 19 51 54 51 27 0 49-4 71-11v134c-30 9-66 15-124 15-64 0-108-14-141-47-32-32-46-78-46-140M459 0h190v541H459z"/><glyph unicode="5" horiz-adv-x="630" d="M303-14c170 0 289 93 289 249v2c0 152-114 222-240 222-47 0-80-10-112-25l6 106h315v160H93L73 345l115-64c33 20 69 35 112 35 61 0 103-31 103-81v-2c0-50-39-82-103-82-59 0-113 28-170 76L19 97C92 29 179-14 303-14z"/><glyph unicode="ﬂ" horiz-adv-x="704" d="M85 0h189v389h121v146H271v13c0 35 19 51 54 51 27 0 49-4 71-11v134c-30 9-66 15-124 15-64 0-108-14-141-47-32-32-46-78-46-140v-12H22V389h63M459 0h190v730H459z"/><glyph unicode="ƒ" horiz-adv-x="553" d="M111-10c130 0 192 49 215 182l28 157h140v144H380l5 30c8 45 31 63 78 63 19 0 43-3 67-9v140c-28 8-68 13-110 13-129 0-197-55-218-172l-13-65h-86V329h61l-23-132c-9-48-26-65-69-65-14 0-28 2-47 6V0c31-7 56-10 86-10z"/><glyph unicode="4" horiz-adv-x="689" d="M384 0h188v136h89v145h-89v424H376L13 273l32-137h339M217 280l167 201V280z"/><glyph unicode="⁄" horiz-adv-x="501" d="M-73-98H86l465 856H393z"/><glyph unicode="g" horiz-adv-x="676" d="M317-162c113 0 189 27 238 76 48 48 70 117 70 216v411H435v-64c-41 43-89 76-170 76-125 0-234-96-234-252v-2C31 144 138 48 271 48c79 0 129 37 167 81v-21c0-86-47-133-142-133-73 0-131 19-189 51L46-100c78-40 166-62 271-62m11 356c-65 0-111 44-111 104v2c0 60 46 105 111 105 64 0 110-44 110-104v-2c0-60-46-105-110-105z"/><glyph unicode="ß" horiz-adv-x="635" d="M307-3c175-10 301 63 301 195v2c0 97-72 148-139 170 57 29 104 82 104 164v2c0 116-94 209-250 209-177 0-272-104-272-260V0h189v483c0 63 33 97 80 97 40 0 69-28 69-73v-2c0-50-38-85-82-107V297c67-6 113-33 113-81v-2c0-48-42-77-113-81z"/><glyph unicode="`" horiz-adv-x="500" d="M235 587h134L265 772 88 715z"/><glyph unicode="&gt;" horiz-adv-x="644" d="M82 65l497 198v177L82 638V460l327-109L82 242z"/><glyph unicode="«" horiz-adv-x="631" d="M465 30l136 68-130 170 130 171-136 67-176-234v-8M190 30l137 68-130 170 130 171-137 67L30 292v-48z"/><glyph unicode="»" horiz-adv-x="631" d="M441 30l160 214v48L441 506l-136-68 130-170L305 97M167 30l175 234v8L167 506 30 438l130-170L30 97z"/><glyph unicode="‹" horiz-adv-x="357" d="M190 30l137 68-130 170 130 171-137 67L30 292v-48z"/><glyph unicode="›" horiz-adv-x="357" d="M167 30l160 214v48L167 506 30 438l130-170L30 97z"/><glyph unicode="h" horiz-adv-x="634" d="M51 0h190v293c0 59 34 91 80 91 45 0 76-32 76-91V0h190v354c0 123-69 199-184 199-77 0-127-41-162-86v263H51z"/><glyph unicode="˝" horiz-adv-x="500" d="M30 588h124l120 108-59-108h123l143 127-166 57-30-54-156 54z"/><glyph unicode="-" horiz-adv-x="408" d="M40 229h328v167H40z"/><glyph unicode="i" horiz-adv-x="300" d="M51 590h198v140H51M55 0h190v541H55z"/><glyph unicode="í" horiz-adv-x="300" d="M55 0h190v541H55m18 46h134l147 128-177 57z"/><glyph unicode="î" horiz-adv-x="300" d="M55 0h190v541H55m-109 46H66l84 61 84-61h122L228 752H74z"/><glyph unicode="ï" horiz-adv-x="300" d="M55 0h190v541H55m123 46h165v143H178M-41 587h165v143H-41z"/><glyph unicode="ì" horiz-adv-x="300" d="M55 0h190v541H55m41 46h134L126 772l-178-57z"/><glyph unicode="j" horiz-adv-x="302" d="M51 590h198v140H51m1-893c123 0 193 50 193 187v517H55V32c0-47-19-63-56-63-8 0-17 0-25 1v-126c23-3 48-7 78-7z"/><glyph unicode="k" horiz-adv-x="603" d="M51 0h190v127l49 57L399 0h209L415 324l188 217H388L241 360v370H51z"/><glyph unicode="l" horiz-adv-x="300" d="M55 0h190v730H55z"/><glyph unicode="&lt;" horiz-adv-x="644" d="M562 65v178L235 352l327 109v177L65 440V263z"/><glyph unicode="ł" horiz-adv-x="401" d="M106 0h189v317l82 24v171l-82-24v242H106V434l-82-24V240l82 24z"/><glyph unicode="m" horiz-adv-x="971" d="M51 0h190v294c0 59 32 90 77 90s74-31 74-90V0h190v294c0 59 33 90 78 90s74-31 74-90V0h190v355c0 126-70 198-185 198-79 0-134-34-181-88-29 56-84 88-156 88-76 0-126-41-161-86v74H51z"/><glyph unicode="¯" horiz-adv-x="500" d="M62 592h376v116H62z"/><glyph unicode="µ" horiz-adv-x="831" d="M608-88h259v10L692 102c63 64 100 152 100 248v2c0 201-160 362-376 362S38 551 38 350v-2C38 147 198-13 414-13c36 0 71 5 104 13M416 161c-106 0-179 88-179 189v2c0 101 71 187 177 187 107 0 180-88 180-189v-2c0-101-71-187-178-187z"/><glyph unicode="n" horiz-adv-x="634" d="M51 0h190v293c0 59 34 91 80 91 45 0 76-32 76-91V0h190v354c0 123-69 199-184 199-77 0-127-43-162-88v76H51z"/><glyph horiz-adv-x="277"/><glyph unicode="9" horiz-adv-x="662" d="M297-14c210 0 324 156 324 385v2c0 129-33 209-84 259-53 53-113 82-215 82-160 0-279-100-279-255v-2c0-137 99-221 235-221 62 0 112 23 148 57-9-90-52-146-132-146-56 0-102 18-150 56L53 69c64-50 140-83 244-83m34 389c-61 0-100 39-100 92v2c0 54 37 94 98 94s100-41 100-95v-2c0-51-37-91-98-91z"/><glyph unicode="ñ" horiz-adv-x="634" d="M51 0h190v293c0 59 34 91 80 91 45 0 76-32 76-91V0h190v354c0 123-69 199-184 199-77 0-127-43-162-88v76H51m151 39c13 31 23 46 51 46 32 0 96-39 156-39 69 0 103 50 124 149l-91 25c-13-31-23-46-51-46-32 0-96 39-156 39-69 0-103-50-124-149z"/><glyph unicode="#" horiz-adv-x="706" d="M84 0h145l23 135h127L355 0h145l24 135h119v161h-92l19 112h106v161h-78l22 131H475l-22-131H326l23 131H204l-22-131H62V408h92l-19-112H29V135h78m168 157l21 120h133l-20-120z"/><glyph unicode="o" horiz-adv-x="656" d="M327-13c174 0 300 129 300 283v2c0 154-125 281-298 281-174 0-300-129-300-283v-2C29 114 154-13 327-13m2 161c-67 0-115 56-115 122v2c0 65 44 120 113 120 67 0 115-56 115-122v-2c0-65-44-120-113-120z"/><glyph unicode="ó" horiz-adv-x="656" d="M327-13c174 0 300 129 300 283v2c0 154-125 281-298 281-174 0-300-129-300-283v-2C29 114 154-13 327-13m2 161c-67 0-115 56-115 122v2c0 65 44 120 113 120 67 0 115-56 115-122v-2c0-65-44-120-113-120m-74 441h134l147 128-177 57z"/><glyph unicode="ô" horiz-adv-x="656" d="M327-13c174 0 300 129 300 283v2c0 154-125 281-298 281-174 0-300-129-300-283v-2C29 114 154-13 327-13m2 161c-67 0-115 56-115 122v2c0 65 44 120 113 120 67 0 115-56 115-122v-2c0-65-44-120-113-120M123 585h120l84 61 84-61h122L405 750H251z"/><glyph unicode="ö" horiz-adv-x="656" d="M327-13c174 0 300 129 300 283v2c0 154-125 281-298 281-174 0-300-129-300-283v-2C29 114 154-13 327-13m2 161c-67 0-115 56-115 122v2c0 65 44 120 113 120 67 0 115-56 115-122v-2c0-65-44-120-113-120m26 439h165v143H355M136 587h165v143H136z"/><glyph unicode="œ" horiz-adv-x="1013" d="M320-13c82 0 153 31 202 81 49-51 121-81 208-81 105 0 179 44 232 110l-105 87c-39-38-75-55-121-55-58 0-101 30-116 89h361c1 13 2 27 2 39 0 159-87 296-270 296-77 0-143-30-189-81-48 50-118 81-200 81-167 0-295-129-295-283v-2C29 114 156-13 320-13m297 328c10 59 43 98 94 98 52 0 87-38 94-98M326 148c-65 0-112 56-112 122v2c0 64 43 120 110 120 66 0 113-56 113-122v-2c0-65-43-120-111-120z"/><glyph unicode="˛" horiz-adv-x="500" d="M381-164v82c-61 1-87 23-87 58 0 12 2 23 5 34H177c-13-23-19-47-19-68 0-79 78-121 223-106z"/><glyph unicode="ò" horiz-adv-x="656" d="M327-13c174 0 300 129 300 283v2c0 154-125 281-298 281-174 0-300-129-300-283v-2C29 114 154-13 327-13m2 161c-67 0-115 56-115 122v2c0 65 44 120 113 120 67 0 115-56 115-122v-2c0-65-44-120-113-120m-62 441h134L297 774l-177-57z"/><glyph unicode="1" horiz-adv-x="422" d="M163 0h191v705H213L8 647l37-150 118 27z"/><glyph unicode="ª" horiz-adv-x="390" d="M144 397c39 0 67 15 87 38v-32h104v170c0 42-9 73-32 95-24 24-60 37-114 37-51 0-86-9-120-23l21-74c27 10 51 17 82 17 41 0 60-18 60-49v-4c-17 6-44 11-71 11-70 0-117-31-117-93v-2c0-59 43-91 100-91M41 270h299v77H41m140 116c-21 0-36 12-36 32v2c0 21 18 36 47 36 16 0 30-4 41-8v-13c0-30-22-49-52-49z"/><glyph unicode="º" horiz-adv-x="390" d="M194 395c94 0 163 69 163 155v2c0 85-68 153-161 153-94 0-163-69-163-155v-2c0-85 68-153 161-153M51 270h288v77H51m145 137c-36 0-61 29-61 66v2c0 36 23 65 59 65s61-30 61-67v-2c0-36-23-64-59-64z"/><glyph unicode="ø" horiz-adv-x="656" d="M327-13c174 0 300 129 300 283v2c0 70-25 133-68 182 20 23 83 92 83 92H509l-29-31c-43 24-95 38-151 38-174 0-300-129-300-283v-2c0-69 25-132 68-181L14-5h133l28 30c44-24 95-38 152-38M216 218c-6 16-10 34-10 52v2c0 69 48 128 121 128 16 0 32-3 45-9m-43-251c-16 0-31 3-44 8l155 174c6-16 10-34 10-52v-2c0-69-48-128-121-128z"/><glyph unicode="õ" horiz-adv-x="656" d="M327-13c174 0 300 129 300 283v2c0 154-125 281-298 281-174 0-300-129-300-283v-2C29 114 154-13 327-13m2 161c-67 0-115 56-115 122v2c0 65 44 120 113 120 67 0 115-56 115-122v-2c0-65-44-120-113-120M208 580c13 31 23 46 51 46 32 0 96-39 156-39 69 0 103 50 124 149l-91 25c-13-31-23-46-51-46-32 0-96 39-156 39-69 0-103-50-124-149z"/><glyph unicode="p" horiz-adv-x="676" d="M51-160h190V66c35-41 83-78 165-78 128 0 239 107 239 283v2c0 173-111 280-240 280-81 0-127-39-164-84v72H51m296-394c-61 0-110 51-110 123v2c0 71 49 122 110 122 62 0 111-51 111-122v-2c0-73-49-123-111-123z"/><glyph unicode="¶" horiz-adv-x="596" d="M339 0h195v700H315c-177 0-293-86-293-241v-2c0-154 124-237 296-237h21z"/><glyph unicode="(" horiz-adv-x="445" d="M336-141l79 118C286 66 230 156 230 287s56 221 185 310l-79 118C149 617 44 490 44 287S149-43 336-141z"/><glyph unicode=")" horiz-adv-x="445" d="M109-141C296-43 401 84 401 287S296 617 109 715L30 597c129-89 185-179 185-310S159 66 30-23z"/><glyph unicode="%" horiz-adv-x="899" d="M215 333c108 0 181 85 181 188v2c0 102-71 187-180 187-110 0-181-85-181-188v-2c0-103 72-187 180-187M112 0h135l540 700H652m31-710c108 0 181 86 181 188v2c0 103-71 187-180 187-110 0-181-85-181-188v-2c0-102 72-187 180-187M216 443c-33 0-59 33-59 78v2c0 44 23 77 58 77 34 0 59-34 59-78v-2c0-44-24-77-58-77m468-343c-33 0-59 34-59 78v2c0 45 22 77 58 77 34 0 59-33 59-78v-2c0-44-24-77-58-77z"/><glyph unicode="." horiz-adv-x="284" d="M43 0h198v195H43z"/><glyph unicode="·" horiz-adv-x="284" d="M43 215h198v195H43z"/><glyph unicode="‰" horiz-adv-x="1295" d="M215 333c108 0 181 85 181 188v2c0 102-71 187-180 187-110 0-181-85-181-188v-2c0-103 72-187 180-187M112 0h135l540 700H652m427-710c108 0 181 86 181 188v2c0 103-71 187-180 187-110 0-181-85-181-188v-2c0-102 72-187 180-187m-396 0c108 0 181 86 181 188v2c0 103-71 187-180 187-110 0-181-85-181-188v-2c0-102 72-187 180-187M216 443c-33 0-59 33-59 78v2c0 44 23 77 58 77 34 0 59-34 59-78v-2c0-44-24-77-58-77m864-343c-33 0-59 34-59 78v2c0 45 22 77 58 77 34 0 59-33 59-78v-2c0-44-24-77-58-77m-396 0c-33 0-59 34-59 78v2c0 45 22 77 58 77 34 0 59-33 59-78v-2c0-44-24-77-58-77z"/><glyph unicode="π" horiz-adv-x="830" d="M414-14c203 0 363 167 363 364v2c0 197-158 362-361 362S53 547 53 350v-2C53 151 211-14 414-14m0 40C232 26 95 171 95 348v2c0 177 138 324 321 324 182 0 319-145 319-322v-2c0-177-138-324-321-324M273 164h108v110h53c94 0 165 48 165 137v2c0 86-63 136-161 136H273m108-191v101h49c38 0 61-17 61-50v-2c0-30-23-49-61-49z"/><glyph unicode="+" horiz-adv-x="640" d="M233 96h174v172h169v168H407v172H233V436H64V268h169z"/><glyph unicode="±" horiz-adv-x="618" d="M317-14c172 0 274 93 274 218v2c0 86-52 133-123 157 62 29 105 79 105 162v2c0 107-102 187-258 187-135 0-215-55-277-128l120-112c40 44 84 76 140 76 54 0 88-25 88-61v-2c0-35-29-61-99-61h-71V280h73c77 0 112-23 112-61v-2c0-38-35-67-94-67-67 0-120 29-170 79L16 110C88 33 187-14 317-14z"/><glyph unicode="q" horiz-adv-x="676" d="M435-160h190v701H435v-66c-36 41-84 78-166 78-128 0-238-107-238-283v-2C31 95 142-12 270-12c81 0 128 39 165 84m-107 75c-61 0-111 51-111 123v2c0 72 50 122 111 122s110-51 110-122v-2c0-72-49-123-110-123z"/><glyph unicode="?" horiz-adv-x="540" d="M191 228h121l12 64c111 27 195 81 195 207v2c0 130-103 210-250 210-115 0-198-44-259-105l100-132c47 42 99 66 146 66 48 0 75-21 75-55v-1c0-43-41-70-157-80l-8-9M150 0h197v170H150z"/><glyph unicode="¿" horiz-adv-x="540" d="M193 530h198v170H193m78-711c115 0 199 44 260 105L430 226c-47-42-99-66-145-66-48 0-76 21-76 55v1c0 43 41 70 157 80l9 9-26 167H228l-11-64C105 381 22 327 22 201v-2C22 69 125-11 271-11z"/><glyph unicode="&quot;" horiz-adv-x="537" d="M290 341h100l127 354v5H313M34 341h99l127 354v5H56z"/><glyph unicode="„" horiz-adv-x="546" d="M301-167c125 4 203 57 203 203v159H309V0h74c3-54-30-86-97-94M35-167c125 4 203 57 203 203v159H43V0h74c3-54-30-86-97-94z"/><glyph unicode="“" horiz-adv-x="547" d="M305 343h195v195h-74c-2 54 31 86 98 94l-16 73c-124-4-203-58-203-203M40 343h195v195h-74c-3 54 30 86 97 94l-15 73c-125-4-203-58-203-203z"/><glyph unicode="”" horiz-adv-x="547" d="M305 338c124 4 202 57 202 203v159H312V505h75c2-54-31-87-98-94M39 338c125 4 203 57 203 203v159H47V505h74c2-54-31-87-98-94z"/><glyph unicode="‘" horiz-adv-x="284" d="M40 343h197v195h-76c-3 54 33 86 100 94l-16 73c-125-4-205-55-205-203z"/><glyph unicode="’" horiz-adv-x="284" d="M39 338c125 4 205 55 205 203v159H47V505h76c3-54-33-87-100-94z"/><glyph unicode="‚" horiz-adv-x="284" d="M35-167c125 4 206 55 206 203v159H43V0h77c2-54-33-86-100-94z"/><glyph unicode="'" horiz-adv-x="284" d="M34 341h103l127 354v5H56z"/><glyph unicode="r" horiz-adv-x="428" d="M51 0h190v168c0 125 56 182 155 182h16v200c-90 4-140-44-171-118v109H51z"/><glyph unicode="√" horiz-adv-x="1108" d="M489 0h189v389h121v146H675v13c0 35 19 51 54 51 27 0 49-4 71-11v134c-30 9-66 15-124 15-64 0-109-14-141-47-32-32-46-78-46-140v-15h-64V389h64M85 0h189v389h121v146H271v13c0 35 19 51 54 51 27 0 49-4 71-11v134c-30 9-66 15-124 15-64 0-108-14-141-47-32-32-46-78-46-140v-12H22V389h63M863 0h190v730H863z"/><glyph unicode="®" horiz-adv-x="830" d="M414-14c203 0 363 167 363 364v2c0 197-158 362-361 362S53 547 53 350v-2C53 151 211-14 414-14m0 40C232 26 95 171 95 348v2c0 177 138 324 321 324 182 0 319-145 319-322v-2c0-177-138-324-321-324M256 168h107v117h47l78-117h123l-92 134c48 20 79 59 79 118v2c0 37-11 66-33 88-27 27-69 43-130 43H256m107-185v93h69c36 0 59-15 59-46v-2c0-28-21-45-58-45z"/><glyph unicode="˚" horiz-adv-x="500" d="M250 591c70 0 133 59 133 127v2c0 69-63 126-133 126s-133-57-133-126v-2c0-68 63-127 133-127m0 61c-37 0-67 30-67 66v2c0 35 30 65 67 65s67-30 67-65v-2c0-36-30-66-67-66z"/><glyph unicode="s" horiz-adv-x="514" d="M266-12c132 0 221 62 221 181v2c0 105-85 142-192 172-57 17-88 27-88 48v2c0 15 15 26 44 26 43 0 104-19 160-50l65 120c-62 40-144 63-223 63-125 0-217-64-217-179v-2c0-109 85-145 192-173 57-16 87-25 87-46v-2c0-19-15-29-48-29-56 0-124 21-186 62L10 68c75-54 165-80 256-80z"/><glyph unicode="š" horiz-adv-x="514" d="M266-12c132 0 221 62 221 181v2c0 105-85 142-192 172-57 17-88 27-88 48v2c0 15 15 26 44 26 43 0 104-19 160-50l65 120c-62 40-144 63-223 63-125 0-217-64-217-179v-2c0-109 85-145 192-173 57-16 87-25 87-46v-2c0-19-15-29-48-29-56 0-124 21-186 62L10 68c75-54 165-80 256-80m-84 599h154l128 165H344l-84-61-84 61H54z"/><glyph unicode="§" horiz-adv-x="626" d="M309-13c155 0 231 73 231 162v2c0 41-18 76-47 98 53 19 91 52 91 110v2c0 86-103 118-228 146-72 15-97 27-97 45v2c0 19 16 30 54 30 54 0 114-23 164-59l77 109c-51 45-138 79-237 79-154 0-231-72-231-161v-2c0-41 17-76 47-99-53-19-91-51-91-110v-2c0-85 103-118 228-146 68-14 97-26 97-45v-2c0-18-15-30-54-30-54 0-114 23-164 59L72 66c51-45 138-79 237-79m78 310c-19 0-51 6-99 18-62 15-101 29-101 51v2c0 23 21 35 51 35 20 0 52-6 99-18 63-15 101-29 101-51v-2c0-23-21-35-51-35z"/><glyph unicode=";" horiz-adv-x="294" d="M48 346h198v195H48m-8-708c125 4 206 55 206 203v159H48V0h77c2-54-33-86-100-94z"/><glyph unicode="7" horiz-adv-x="614" d="M62 0h214l309 554v146H46V537h324z"/><glyph unicode="6" horiz-adv-x="662" d="M341-14c153 0 278 95 278 252v2c0 140-108 218-231 218-69 0-114-26-151-54 9 88 50 149 132 149 56 0 96-21 139-53l91 137c-67 50-135 77-233 77-219 0-325-166-325-384v-2c0-131 34-210 86-262 50-50 115-80 214-80m-8 151c-61 0-99 40-99 91v2c0 50 36 89 97 89s99-40 99-90v-2c0-51-36-90-97-90z"/><glyph unicode="/" horiz-adv-x="535" d="M-38-128h154l443 926H405z"/><glyph horiz-adv-x="277"/><glyph unicode="£" horiz-adv-x="639" d="M44 0h561v153H312v110h216v136H312v51c0 55 30 89 80 89 41 0 72-21 102-57l118 129c-52 58-124 101-233 101-83 0-146-24-191-69s-69-113-69-193v-51H44V263h75V144l-75-29z"/><glyph unicode="t" horiz-adv-x="431" d="M266-11c53 0 98 12 132 31v149c-23-11-47-18-72-18-35 0-52 16-52 54v183h126v153H274v137H84V541H20V388h64V168C84 39 152-11 266-11z"/><glyph unicode="þ" horiz-adv-x="676" d="M51-160h190V66c35-41 83-78 165-78 128 0 239 107 239 283v2c0 173-111 280-240 280-81 0-127-39-164-84v261H51m296-583c-61 0-110 51-110 123v2c0 71 49 122 110 122 62 0 111-51 111-122v-2c0-73-49-123-111-123z"/><glyph unicode="3" horiz-adv-x="621" d="M316-14c156 0 270 91 270 233v2c0 119-81 175-181 197l167 143v139H66V543h268L173 398l28-101h82c73 0 114-27 114-72v-2c0-43-35-71-90-71-64 0-117 29-167 80L18 110C86 35 181-14 316-14z"/><glyph unicode="˜" horiz-adv-x="500" d="M130 580c13 31 23 46 51 46 32 0 96-39 156-39 69 0 103 50 124 149l-91 25c-13-31-23-46-51-46-32 0-96 39-156 39-69 0-103-50-124-149z"/><glyph unicode="™" horiz-adv-x="695" d="M334 392h84v180l78-122h3l78 122V392h85v308h-90l-74-119-73 119h-91M108 392h86v233h92v75H16v-75h92z"/><glyph unicode="2" horiz-adv-x="624" d="M33 0h554v158H298l120 84c104 75 162 133 162 245v2c0 132-105 223-258 223-136 0-210-53-285-150l131-109c55 63 92 90 139 90s78-27 78-71c0-42-25-75-90-126L33 146z"/><glyph unicode="u" horiz-adv-x="634" d="M231-12c77 0 127 41 162 86V0h190v541H393V248c0-59-34-91-79-91-46 0-77 32-77 91v293H47V187C47 64 116-12 231-12z"/><glyph unicode="ú" horiz-adv-x="634" d="M231-12c77 0 127 41 162 86V0h190v541H393V248c0-59-34-91-79-91-46 0-77 32-77 91v293H47V187C47 64 116-12 231-12m-3 599h134l147 128-177 57z"/><glyph unicode="û" horiz-adv-x="634" d="M231-12c77 0 127 41 162 86V0h190v541H393V248c0-59-34-91-79-91-46 0-77 32-77 91v293H47V187C47 64 116-12 231-12M112 587h120l84 61 84-61h122L394 752H240z"/><glyph unicode="ü" horiz-adv-x="634" d="M231-12c77 0 127 41 162 86V0h190v541H393V248c0-59-34-91-79-91-46 0-77 32-77 91v293H47V187C47 64 116-12 231-12m113 599h165v143H344M125 587h165v143H125z"/><glyph unicode="ù" horiz-adv-x="634" d="M231-12c77 0 127 41 162 86V0h190v541H393V248c0-59-34-91-79-91-46 0-77 32-77 91v293H47V187C47 64 116-12 231-12m41 599h134L302 772l-177-57z"/><glyph unicode="_" horiz-adv-x="600" d="M-2-160h604v116H-2z"/><glyph unicode="v" horiz-adv-x="625" d="M226-4h173l216 545H418L314 225 210 541H10z"/><glyph unicode="w" horiz-adv-x="861" d="M177-4h163l90 281L518-4h164l167 545H666l-73-274-84 276H352l-83-274-71 272H12z"/><glyph unicode="x" horiz-adv-x="589" d="M8 0h200l85 139L377 0h204L399 274l178 267H376l-80-133-80 133H11l179-268z"/><glyph unicode="y" horiz-adv-x="626" d="M211-163c108 0 159 50 206 176l198 528H420L318 215 210 541H11L223 10c-12-17-25-22-44-22-21 0-53 11-83 29L37-116c50-28 107-47 174-47z"/><glyph unicode="ý" horiz-adv-x="626" d="M211-163c108 0 159 50 206 176l198 528H420L318 215 210 541H11L223 10c-12-17-25-22-44-22-21 0-53 11-83 29L37-116c50-28 107-47 174-47m15 750h134l147 128-177 57z"/><glyph unicode="ÿ" horiz-adv-x="626" d="M211-163c108 0 159 50 206 176l198 528H420L318 215 210 541H11L223 10c-12-17-25-22-44-22-21 0-53 11-83 29L37-116c50-28 107-47 174-47m128 750h165v143H339M120 587h165v143H120z"/><glyph unicode="¥" horiz-adv-x="708" d="M258 0h192v93h184v120H450v50h184v120H495l209 317H488L356 470 224 700H4l208-317H74V263h184v-50H74V93h184z"/><glyph unicode="z" horiz-adv-x="563" d="M32 0h502v151H283l251 265v125H41V390h241L32 125z"/><glyph unicode="ž" horiz-adv-x="563" d="M32 0h502v151H283l251 265v125H41V390h241L32 125m175 462h154l128 165H369l-84-61-84 61H79z"/><glyph unicode="0" horiz-adv-x="730" d="M364-14c200 0 325 166 325 364v2c0 198-124 362-323 362S41 548 41 350v-2C41 150 164-14 364-14m2 172c-78 0-130 80-130 192v2c0 112 51 190 128 190s130-81 130-192v-2c0-111-50-190-128-190z"/></font>
</svg>
